Mehr anzeigen | Recensie | Connor Skific
tag star trek discovery the meg Ncis hindi NFL Doctor Who S11E01 the resident 9-1-1 s02e04 ufc The Good Doctor S02E03 ddr Vikings luciana souza Ant-Man and the Wasp Survivor manifest 1080p 2018 better call saul s04e10 etmovies LESBIAN ANAL SEX SLAVES 2018 ITA 2160p wwe ita 2018 avengers the man in the High Castle ufc 229 Big Bang Theory Manifest S01E03 lucifer 0 The big bang theory playboy venom incredibles 2 the walking dead great british bake off s09e07 ethd better call saul DTOne venom 2018 evo ettv arrow español ant mAN AND THE WASP the walking dead s09e01 madam secretary office 2019 walking dead game of thrones a star is born shameless s09e05 star trek discovery español dtone Sicario the good doctor shameless Bull doctor who 1080p YIFY WESTWORLD fgt Mission Impossible Fallout etrg 
Warning! Use a VPN When Downloading Torrents!
Your IP Address is 136.243.35.158. Location is Germany
Your Internet Provider is tracking your torrent activity! Hide your IP ADDRESS with a VPN!
We strongly recommend using NordVPN to anonymize your torrenting. 30 Day Money Back Guarantee!
Try it Now!
ETTV Recommended TV Shows
The.Flash.2014.S05E01.HDTV.x264-SVA[ettv] torrent
Black.Lightning.S02E01.HDTV.x264-SVA[ettv] torrent
Mayans.M.C.S01E06.WEBRip.x264-TBS[ettv] torrent
The.Purge.S01E06.WEB.x264-TBS[ettv] torrent

ETTV Recommended Xvid
Mamma.Mia.Here.We.Go.Again.2018.HDRip.XViD-ETRG torrent
Never.Goin.Back.2018.HDRip.XViD-ETRG torrent
The.Witch.Files.2018.HDRip.XViD-ETRG torrent
Searching.2018.HC.HDRip.XviD.AC3-EVO[EtMovies] torrent

ETTV Recommended HD
Constantine.City.of.Demons.The.Movie.2018.1080p.BluRay.x264.DTS-HDMA.5.1-DTOne torrent
Death.Race-Beyond.Anarchy.2018.Multi.1080p.BluRay.x264.DTS-HDMA.5.1-DTOne torrent
Hangman.2017.Multi.BluRay.1080p.x264.DTS-HDMA.5.1-DTOne torrent
The.Extraordinary.Journey.of.the.Fakir.2018.Multi.BluRay.1080p.x264.DTSXLL.5.1-DTOne torrent

ETTV Recommended UHD
Hook.1991.mUHD.2160p.BluRay.x265.HDR.DDP.5.1-DTOne torrent
Shutter.Island.2010.2160p.mUHD.BluRay.x265.HDR.DDP.5.1-DTOne torrent
Uncle.Drew.2018.2160p.mUHD.BluRay.x265.HDR.DDP.5.1-DTOne torrent
Hotel.Transylvania.3.Summer.Vacation.2018.mUHD.2160p.BluRay.x265.HDR.DDP.5.1-DTOne torrent

ETTV Recommended Cam
The Predator 2018 NEW HDCAM.XViD.AC3 ETRG torrent
THE NUN 2018 NEW HDCAM-24HD torrent
A Star Is Born 2018 720p HDCAM-1XBET torrent
Venom 2018 HD-TS V2 X264-1XBET torrent

ETTV Recommended Foreign
Gayatri (2018) 720p UNCUT HDRip x264 Eng Subs [Dual Audio] [Hindi DD 2.0 - Telugu 2.0] Exclusive By -=!Dr.STAR!=- torrent
Aake (2017) 720p UNCUT HDRip x264 [Dual Audio] [Hindi DD 2.0 - Kannada DD 5.1] Exclusive By -=!Dr.STAR!=- torrent
Vaseegara (2003) DVDRip x264 - DTOne torrent
Imaikkaa Nodigal (2018) [TAMIL - 720p - WEB HDRip - x264 - DD 5.1 - ESub - 2GB] - MAZE torrent

Social


Download Torrent "Wrecked (2016) S03E07 (1080p WEBRip x265 HEVC 10bit AAC 2.0 Qman) [UTR]"

IMDB Details
Description:

N/A

Genre:

N/A

Download Torrent (Magnet)
Download Torrent (File)
Seeds: 132
Leechers: 6
Completed: 1,149 
Last Checked: 06-10-2018 16:11:22


Loading...
Details
Title:Wrecked (2016) S03E07 (1080p WEBRip x265 HEVC 10bit AAC 2.0 Qman) [UTR]
Description:





Media Information
General
Format                                   : Matroska
Format version                           : Version 4 / Version 2
File size                                : 531 MiB
Duration                                 : 22 min 51 s
Overall bit rate                         : 3 245 kb/s
Encoded date                             : UTC 2018-10-05 03:48:58
Writing application                      : mkvmerge v26.0.0 ('In The Game') 64-bit
Writing library                          : libebml v1.3.6 + libmatroska v1.4.9

Video
ID                                       : 1
Format                                   : HEVC
Format/Info                              : High Efficiency Video Coding
Format profile                           : Main [email protected]@Main
Codec ID                                 : V_MPEGH/ISO/HEVC
Duration                                 : 22 min 51 s
Bit rate                                 : 3 117 kb/s
Width                                    : 1 920 pixels
Height                                   : 1 080 pixels
Display aspect ratio                     : 16:9
Frame rate mode                          : Constant
Frame rate                               : 23.976 (24000/1001) FPS
Color space                              : YUV
Chroma subsampling                       : 4:2:0
Bit depth                                : 10 bits
Bits/(Pixel*Frame)                       : 0.063
Stream size                              : 510 MiB (96%)
Writing library                          : x265 2.8+68-fa57fa584898:[Windows][MSVC 1915][64 bit] 10bit
Encoding settings                        : cpuid=1111039 / frame-threads=4 / numa-pools=16 / wpp / no-pmode / no-pme / no-psnr / no-ssim / log-level=2 / input-csp=1 / input-res=1920x1080 / interlace=0 / total-frames=32889 / level-idc=0 / high-tier=1 / uhd-bd=0 / ref=3 / no-allow-non-conformance / no-repeat-headers / annexb / no-aud / no-hrd / info / hash=0 / no-temporal-layers / open-gop / min-keyint=23 / keyint=250 / gop-lookahead=0 / bframes=4 / b-adapt=2 / b-pyramid / bframe-bias=0 / rc-lookahead=20 / lookahead-slices=6 / scenecut=40 / radl=0 / no-intra-refresh / ctu=64 / min-cu-size=8 / no-rect / no-amp / max-tu-size=32 / tu-inter-depth=1 / tu-intra-depth=1 / limit-tu=0 / rdoq-level=1 / dynamic-rd=0.00 / no-ssim-rd / signhide / no-tskip / nr-intra=0 / nr-inter=0 / no-constrained-intra / no-strong-intra-smoothing / max-merge=2 / limit-refs=3 / no-limit-modes / me=3 / subme=2 / merange=57 / temporal-mvp / weightp / no-weightb / no-analyze-src-pics / deblock=-1:-1 / sao / no-sao-non-deblock / rd=3 / no-early-skip / rskip / no-fast-intra / no-tskip-fast / no-cu-lossless / no-b-intra / no-splitrd-skip / rdpenalty=0 / psy-rd=0.35 / psy-rdoq=0.00 / no-rd-refine / no-lossless / cbqpoffs=0 / crqpoffs=0 / rc=crf / crf=24.0 / qcomp=0.60 / qpstep=4 / stats-write=0 / stats-read=0 / ipratio=1.40 / pbratio=1.30 / aq-mode=3 / aq-strength=1.00 / cutree / zone-count=0 / no-strict-cbr / qg-size=32 / no-rc-grain / qpmax=69 / qpmin=0 / no-const-vbv / sar=0 / overscan=0 / videoformat=5 / range=0 / colorprim=2 / transfer=2 / colormatrix=2 / chromaloc=0 / display-window=0 / max-cll=0,0 / min-luma=0 / max-luma=1023 / log2-max-poc-lsb=8 / vui-timing-info / vui-hrd-info / slices=1 / no-opt-qp-pps / no-opt-ref-list-length-pps / no-multi-pass-opt-rps / scenecut-bias=0.05 / no-opt-cu-delta-qp / no-aq-motion / no-hdr / no-hdr-opt / no-dhdr10-opt / no-idr-recovery-sei / analysis-reuse-level=5 / scale-factor=0 / refine-intra=0 / refine-inter=0 / refine-mv=0 / no-limit-sao / ctu-info=0 / no-lowpass-dct / refine-mv-type=0 / copy-pic=1 / max-ausize-factor=1.0 / no-dynamic-refine / no-single-sei
Language                                 : English
Default                                  : Yes
Forced                                   : No

Audio
ID                                       : 2
Format                                   : AAC
Format/Info                              : Advanced Audio Codec
Format profile                           : LC
Codec ID                                 : A_AAC
Duration                                 : 22 min 51 s
Bit rate                                 : 126 kb/s
Channel(s)                               : 2 channels
Channel positions                        : Front: L R
Sampling rate                            : 44.1 kHz
Frame rate                               : 43.066 FPS (1024 spf)
Compression mode                         : Lossy
Delay relative to video                  : 8 ms
Stream size                              : 20.5 MiB (4%)
Language                                 : English
Default                                  : Yes
Forced                                   : No

Subtitle
ID                                       : 3
Format                                   : UTF-8
Codec ID                                 : S_TEXT/UTF8
Codec ID/Info                            : UTF-8 Plain Text
Duration                                 : 20 min 59 s
Bit rate                                 : 143 b/s
Count of elements                        : 496
Stream size                              : 22.0 KiB (0%)
Language                                 : English
Default                                  : Yes
Forced                                   : No

Source Information
Release: Unknown Source/NO-GROUP


UTR wrote:

Note From UTR
We have no issue with individuals posting or re-uploading our torrents on a platform we aren't on. However, if this is something you'd like to do, please do so in a 'as-is' format. We ask that you do not create a new torrent, include all descriptions you see above including the UTR logo, tags, notes and screenshots. If you'd like to become a permanent poster on a website we don't post to, feel free to get in contact with a UniTeam member.

If possible please donate: BTC 1QA5fum5AyXvWzdVCkQzUNvw3Ef15fHRaR


Category:TV > HEVC/x265
Lang:English  English
Total Size:531 MB
Info Hash:ec56a8f0184ba6dcca7e60ed448d9528ce543f29
Added By:UTR
Date Added:06-10-2018 16:11:17

Files

File List: 
 File Size
Wrecked.(2016).S03E07.1080p.WEBRip.x265.10bit.AAC.2.0-Qman[UTR].mkv531 MB



Loading...
Comments

There are currently no comments. Be the first one to write something !

Disclaimer: None of the files shown here are actually hosted or transmitted by this server. The links are provided solely by this site's users. The site moderation is also a service provided by the site's users. The administrator of this site (ettv.tv) cannot be held responsible for what its users post, or any other actions of its users. You may not use this site to distribute or download any material when you do not have the legal rights to do so. It is your own responsibility to adhere to these terms.